220623 MNet M! Countdown

You must be logged in to view this content.

Mediainfo

General

Complete name: 220623 MNet M! Countdown LOONA – Flip That.mp4
Format: MPEG-4
Profile format: Base Media
Codec ID: isom (isom / iso2 / mp41)
File size: 519 MiB
Duration: 5 min 51 s
Overall bit rate mode: Variable
Overall bit rate: 12.4 Mb / s
Encoded date: UTC 1904-01-01 00:00:00
Tagged date: UTC 1904-01-01 00:00:00
Writing application: Lavf58.27.103

Video

ID: 1
Format: HEVC
Format / Info: High Efficiency Video Coding
Profile format: Main @ L4.1 @ Main
Codec ID: hev1
Codec ID / Info: High Efficiency Video Coding
Duration: 5 min 50 s
Bit rate: 12.0 Mb / s
Width: 1,920 pixels
Height: 1,080 pixels
Display aspect ratio: 16: 9
Frame rate mode: Variable
Frame rate: 59,940 (59940/1000) FPS
Minimum frame rate: 5,903 FPS
Maximum frame rate: 59,960 FPS
Color space: YUV
Chroma subsampling: 4: 2: 0
Bit depth: 8 bits
Bits / (Pixel * Frame): 0.097
Stream size: 502 MiB (97%)
Encoded date: UTC 1904-01-01 00:00:00
Tagged date: UTC 1904-01-01 00:00:00
Color range: Limited
Color primaries: BT.709
Transfer characteristics: BT.709
Matrix coefficients: BT.709

Audio

ID: 2
Format: AAC
Format / Info: Advanced Audio Codec
Profile format: LC
Codec ID: 40
Duration: 5 min 51 s
Bit rate mode: Variable
Bit rate: 384 kbps
Channel (s): 2 channels
Channel positions: Front: LR
Sampling rate: 48.0 kHz
Frame rate: 46,875 FPS (1024 spf)
Compression mode: Lossy
Stream size: 16.0 MiB (3%)
Language: Korean
Default: Yes
Alternate group: 1
Encoded date: UTC 1904-01-01 00:00:00
Tagged date: UTC 1904-01-01 00:00:00

Leave a Reply

Your email address will not be published.